<?xml version="1.0" standalone="no"?>
<!DOCTYPE svg PUBLIC "-//W3C//DTD SVG 1.1//EN" "http://www.w3.org/Graphics/SVG/1.1/DTD/svg11.dtd" >
<svg xmlns="http://www.w3.org/2000/svg">
<metadata>
<json>
<![CDATA[
{
	"fontFamily": "icon",
	"majorVersion": 1,
	"minorVersion": 0,
	"description": "Font generated by IcoMoon.",
	"version": "Version 1.0",
	"fontId": "icon",
	"psName": "icon",
	"subFamily": "Regular",
	"fullName": "icon"
}
]]>
</json>
</metadata>
<defs>
<font id="icon" horiz-adv-x="1024">
<font-face units-per-em="1024" ascent="960" descent="-64" />
<missing-glyph horiz-adv-x="1024" />
<glyph unicode="&#x20;" horiz-adv-x="512" d="" />
<glyph unicode="&#xe900;" glyph-name="mytickets" data-tags="mytickets" horiz-adv-x="1820" d="M1784.491 255.204c19.854 0 35.954-15.986 35.954-35.669v-171.634c0-61.668-50.517-111.844-112.583-111.844h-1595.278c-62.066 0-112.583 50.176-112.583 111.844v171.634c0 19.684 16.1 35.669 35.954 35.669 107.008 0 194.048 86.471 194.048 192.796s-87.040 192.796-194.048 192.796c-19.854 0-35.954 15.986-35.954 35.669v171.634c0 61.668 50.517 111.844 112.583 111.844h1595.278c62.066 0 112.583-50.176 112.583-111.844v-171.634c0-19.684-16.1-35.669-35.954-35.669-107.008 0-194.048-86.471-194.048-192.796s87.040-192.796 194.048-192.796zM1479.111 448c0 133.575 97.849 266.98 227.556 284.444v56.889c0 22.3-34.418 56.889-56.889 56.889h-284.444c0-19.74-2.446-71.908-22.3-71.908s-36.011 72.078-34.588 71.908h-1137.778c-22.471 0-56.889-34.588-56.889-56.889v-56.889c129.707-17.465 227.556-150.869 227.556-284.444s-97.849-266.98-227.556-284.444v-56.889c0-22.3 34.418-56.889 56.889-56.889h1137.778l-1.365 93.127c0 19.684 16.1-21.22 35.954-21.22s22.3 61.611 22.3 41.87v-113.778h284.444c22.471 0 56.889 34.588 56.889 56.889v56.889c-129.707 17.465-227.556 150.869-227.556 284.444zM1336.832 164.238c15.474 0 28.046 12.174 28.046 27.193v58.027c0 15.019-12.572 27.193-28.046 27.193s-28.046-12.174-28.046-27.193v-58.027c0-15.019 12.572-27.193 28.046-27.193zM1336.832 391.794c15.474 0 28.046 12.174 28.046 27.193v58.027c0 15.019-12.572 27.193-28.046 27.193s-28.046-12.174-28.046-27.193v-58.027c0-15.019 12.572-27.193 28.046-27.193zM1336.832 618.724c15.474 0 28.046 12.288 28.046 27.477v58.766c0 15.189-12.572 27.534-28.046 27.534s-28.046-12.345-28.046-27.534v-58.766c0-15.189 12.572-27.477 28.046-27.477zM1137.778 163.556h-625.778c-40.96 0-56.889 16.213-56.889 56.889v455.111c0 40.676 15.929 56.889 56.889 56.889h625.778c40.96 0 56.889-16.213 56.889-56.889v-455.111c0-40.676-15.929-56.889-56.889-56.889zM1137.778 675.556h-625.778v-455.111h625.778v455.111zM659.513 561.664c-19.001 0-34.475-12.8-34.475-28.558s15.474-28.558 34.475-28.558h330.809c19.058 0 34.475 12.8 34.475 28.558s-15.417 28.558-34.475 28.558h-330.809zM656.612 391.452c-17.351 0-31.46-12.8-31.46-28.558s14.108-28.558 31.46-28.558h50.972c17.408 0 31.516 12.8 31.516 28.558s-14.108 28.558-31.516 28.558h-50.972zM826.823 391.452c-17.18 0-31.118-12.8-31.118-28.558s13.938-28.558 31.118-28.558h166.798c17.18 0 31.118 12.8 31.118 28.558s-13.938 28.558-31.118 28.558h-166.798z" />
<glyph unicode="&#xe901;" glyph-name="pointer" data-tags="pointer" horiz-adv-x="853" d="M845.767 472.462c-0.228-1.479-1.138-5.973-2.901-13.71-6.485-27.932-16.1-54.955-28.558-80.953-45.966-104.107-147.228-264.021-368.697-435.371-5.575-4.267-12.231-6.428-18.944-6.428s-13.369 2.162-18.944 6.428c-221.696 171.349-322.731 331.264-368.697 435.371-12.459 25.998-22.073 53.248-28.558 80.953-1.764 7.737-2.674 12.231-2.901 13.71-5.12 25.316-7.566 51.314-7.566 77.084 0 226.247 191.374 410.453 426.439 410.453s426.439-184.206 426.894-410.453c0-25.771-2.674-51.769-7.566-77.084zM426.496 845.483c-172.487 0-312.889-139.833-312.889-311.467 0-19.968 1.877-39.652 5.689-59.221 0-0.569 0.171-0.967 0.171-1.308 0.228-0.967 0.626-3.812 1.764-8.192 0-0.171 0-0.171 0-0.341 4.949-21.276 12.004-42.098 21.106-61.838 0.228-0.228 0.228-0.569 0.398-0.796 35.612-84.025 113.778-212.252 283.762-352.028 169.927 139.776 248.092 268.004 283.705 352.028 0.228 0.228 0.228 0.569 0.398 0.796 9.33 19.911 16.384 40.562 21.163 61.838 0 0.171 0 0.171 0 0.341 0.91 4.38 1.479 7.225 1.707 8.192 0 0.341 0.171 0.74 0.171 1.138 3.812 19.342 5.746 39.253 5.746 59.392 0 171.634-140.459 311.467-312.889 311.467zM426.496 334.222c-109.966 0-199.509 89.429-199.509 199.225s89.543 199.225 199.509 199.225c109.966 0 199.509-89.429 199.509-199.225s-89.543-199.225-199.509-199.225zM426.553 618.894c-47.104 0-85.561-38.4-85.561-85.504s38.343-85.447 85.561-85.447c47.275 0 85.618 38.343 85.618 85.447s-38.457 85.504-85.618 85.504z" />
<glyph unicode="&#xe902;" glyph-name="datetime" data-tags="datetime" horiz-adv-x="922" d="M768-64c-84.48 0-153.6 69.12-153.6 153.6s69.12 153.6 153.6 153.6c84.48 0 153.6-69.12 153.6-153.6s-69.12-153.6-153.6-153.6zM768 191.744c-56.166 0-102.144-45.978-102.144-102.144s45.978-102.144 102.144-102.144c56.166 0 102.144 45.978 102.144 102.144s-45.978 102.144-102.144 102.144zM718.234 75.622l73.83-38.144 27.136 36.301-50.125 24.218v42.803h-50.842v-65.178zM154.061 448v-102.4h101.734v102.4h-101.734zM255.795 192v102.4h-101.734v-102.4h101.734zM409.395 192v102.4h-101.734v-102.4h101.734zM307.661 601.6v-102.4h101.734v102.4h-101.734zM409.395 345.6v102.4h-101.734v-102.4h101.734zM562.739 192v102.4h-101.734v-102.4h101.734zM461.005 601.6v-102.4h101.734v102.4h-101.734zM562.739 345.6v102.4h-101.734v-102.4h101.734zM819.2 704v-412.16c17.766-1.997 34.867-5.734 51.2-11.571v679.731h-102.4v-51.2h-153.6v51.2h-358.4v-51.2h-153.6v51.2h-102.4v-921.6h565.76c-0.922 8.499-2.56 16.845-2.56 25.6s1.638 17.101 2.56 25.6h-514.56v614.4h768zM717.466 499.2v102.4h-103.168v-102.4h103.168zM717.466 345.6v102.4h-103.168v-102.4h103.168z" />
<glyph unicode="&#xe903;" glyph-name="sold" data-tags="sold" horiz-adv-x="1243" d="M1024.073 154.697l0.219 541.33c0 61.659 51.712 117.321 109.641 117.321s109.641-55.662 109.641-117.321v-539.721l-219.502-1.609zM1134.007 766.683c-48.567 0-87.918-42.13-87.918-94.062s39.351-94.062 87.918-94.062c48.567 0 87.918 42.13 87.918 94.062s-39.351 94.062-87.918 94.062zM292.279 600.137v-443.904h659.090v443.904c0 194.487-145.115 359.424-329.801 359.424-184.613 0-329.289-164.937-329.289-359.424zM0.146 696.027l-0.293-541.33 219.502 1.609v539.721c0 61.659-51.712 117.321-109.641 117.321-57.856 0-109.568-55.662-109.568-117.321zM314.149 82.286h615.351c20.773 0 19.895 0.805 19.895-20.699v-103.57c0-21.577 0.878-20.773-19.895-20.773h-615.351c-20.773 0-19.822-0.805-19.822 20.773v103.57c0 21.504-0.951 20.699 19.822 20.699zM512.658-0.585c0-10.752 9.435-20.699 19.822-20.699h178.688c10.386 0 19.822 9.947 19.822 20.699v20.699c0 10.752-9.435 20.699-19.822 20.699h-178.688c-10.386 0-19.822-9.947-19.822-20.699v-20.699z" />
<glyph unicode="&#xe904;" glyph-name="clock" data-tags="clock" d="M512-64c-281.6 0-512 230.4-512 512s230.4 512 512 512c281.6 0 512-230.4 512-512s-230.4-512-512-512zM512 846.905c-219.42 0-398.905-179.484-398.905-398.905s179.484-398.905 398.905-398.905c219.42 0 398.905 179.484 398.905 398.905s-179.484 398.905-398.905 398.905zM460.8 396.8l266.24-163.84 40.96 66.56-230.4 138.24v266.24h-76.8v-307.2z" />
<glyph unicode="&#xe905;" glyph-name="minus" data-tags="minus" horiz-adv-x="6144" d="M6144 960v-1024h-6144v1024h6144z" />
<glyph unicode="&#xe906;" glyph-name="plus" data-tags="plus" d="M1024 362.667h-426.667v-426.667h-170.667v426.667h-426.667v170.667h426.667v426.667h170.667v-426.667h426.667v-170.667z" />
<glyph unicode="&#xe96e;" glyph-name="paynow" data-tags="paynow" horiz-adv-x="1593" d="M0-63.829v1023.829h1592.889v-1023.829h-1592.889zM1479.111 846.222h-1365.333v-796.444h1365.333v796.444zM348.9 718.393l8.135 14.336h878.82l8.135-14.336c22.642-40.164 60.245-73.33 105.756-93.298l16.27-7.111v-339.797l-16.27-7.168c-45.511-19.968-83.115-53.077-105.756-93.241l-8.078-14.336h-878.876l-8.135 14.336c-22.642 40.107-60.245 73.273-105.756 93.241l-16.27 7.168v339.797l16.27 7.168c45.511 19.968 83.115 53.134 105.756 93.241zM1200.185 215.154c25.714 38.969 62.919 71.851 107.122 94.492v276.878c-44.203 22.642-81.408 55.467-107.122 94.436h-218.681c83.115-51.541 137.785-136.647 137.785-232.903s-54.67-181.362-137.785-232.903h218.681zM796.444 215.154c145.636 0 264.135 104.505 264.135 232.903 0 128.455-118.5 232.903-264.135 232.903s-264.135-104.448-264.135-232.903c0-128.398 118.5-232.903 264.135-232.903zM285.582 309.646c44.203-22.642 81.408-55.467 107.122-94.492h218.681c-83.172 51.541-137.785 136.647-137.785 232.903s54.613 181.362 137.785 232.903h-218.681c-25.714-38.969-62.919-71.794-107.122-94.436v-276.878z" />
<glyph unicode="&#xe96f;" glyph-name="blog" data-tags="blog" d="M874.027 85.931c-96.683-96.683-225.237-149.931-362.027-149.931-136.747 0-265.344 53.248-362.027 149.931-96.725 96.725-149.973 225.28-149.973 362.069 0 136.747 53.248 265.344 149.973 362.027 96.725 96.725 225.28 149.973 362.027 149.973s265.344-53.248 362.027-149.973c96.725-96.683 149.973-225.28 149.973-362.027 0-136.789-53.248-265.344-149.973-362.069zM813.696 749.696c-80.597 80.597-187.733 124.971-301.696 124.971s-221.099-44.373-301.696-124.971c-80.597-80.597-124.971-187.733-124.971-301.696s44.373-221.141 124.971-301.696c80.597-80.597 187.733-124.971 301.696-124.971s221.141 44.373 301.696 124.971c80.597 80.555 124.971 187.733 124.971 301.696s-44.373 221.099-124.971 301.696zM598.784 192.555h-174.251c-92.928 0-168.533 75.093-168.533 167.339v175.957c0 92.373 75.605 167.595 168.533 167.595h106.069c0.64 0 1.323-0.085 1.963-0.128 44.288-5.205 106.709-41.771 130.389-91.733 0.811-1.707 1.493-3.115 2.133-4.437 5.419-11.008 8.661-18.859 12.971-51.797l0.469-3.627c1.579-11.861 3.072-23.083 6.315-26.624 4.437-2.219 19.712-2.56 27.989-2.773 16.512-0.384 28.501-0.683 36.779-7.168l6.699-5.163c2.048-1.579 3.712-3.627 4.864-5.973l4.011-8.363c0.597-1.195 1.024-2.475 1.323-3.797l1.408-6.613c0.213-1.195 0.341-2.389 0.341-3.627l-0.939-121.856c-0.512-92.16-76.117-167.211-168.533-167.211zM733.952 482.944l-1.408 2.944-2.304 1.792c-3.541 0.725-12.288 0.939-18.219 1.109-18.773 0.427-38.187 0.896-49.536 11.136-12.544 11.435-14.763 28.117-17.323 47.36l-0.512 3.669c-3.755 29.141-6.059 33.749-9.813 41.429-0.725 1.536-1.536 3.157-2.389 4.992-17.664 37.291-68.139 67.968-102.912 72.491h-105.003c-74.368 0-134.869-60.117-134.869-134.016v-175.957c0-73.728 60.501-133.76 134.869-133.76h174.251c73.941 0 134.443 60.075 134.869 133.888l0.939 120.064-0.64 2.859zM597.333 316.672h-170.88c-25.301 0-45.867 20.395-45.867 45.44 0 25.088 20.565 45.483 45.867 45.483h170.88c25.216 0 45.739-20.395 45.739-45.483 0-25.045-20.523-45.44-45.739-45.44zM597.333 374.016h-170.88c-6.741 0-12.203-5.333-12.203-11.904 0-6.443 5.589-11.861 12.203-11.861h170.88c6.528 0 12.075 5.419 12.075 11.861 0 6.571-5.419 11.904-12.075 11.904zM510.549 489.003h-84.096c-25.301 0-45.867 20.48-45.867 45.653 0 25.131 20.565 45.568 45.867 45.568h84.096c25.301 0 45.867-20.437 45.867-45.568 0-25.173-20.565-45.653-45.867-45.653zM510.549 546.645h-84.096c-6.741 0-12.203-5.376-12.203-11.989 0-6.571 5.589-12.075 12.203-12.075h84.096c6.613 0 12.203 5.504 12.203 12.075 0 6.613-5.461 11.989-12.203 11.989z" />
<glyph unicode="&#xe970;" glyph-name="email" data-tags="email" d="M1000.747 64h-977.493c-12.843 0-23.253 10.709-23.253 24.021v720c0 13.269 10.411 23.979 23.253 23.979h977.493c12.843 0 23.253-10.709 23.253-23.979v-720c0-13.312-10.411-24.021-23.253-24.021zM981.333 789.333h-938.667v-597.333l292.181 275.328-288.299 297.301v19.371h47.019l418.432-431.488 418.432 431.488h47.019v-19.371l-288.299-297.301 292.181-275.328v597.333zM656.256 433.408l-127.787-131.797c-9.131-9.387-23.808-9.387-32.939 0l-127.787 131.797-325.077-326.741h938.667l-325.077 326.741z" />
<glyph unicode="&#xe971;" glyph-name="entertainment" data-tags="entertainment" d="M938.667 576c-23.552 0-42.667 19.115-42.667 42.667s19.115 42.667 42.667 42.667c23.552 0 42.667-19.115 42.667-42.667s-19.115-42.667-42.667-42.667zM768 789.333c-23.552 0-42.667 19.115-42.667 42.667s19.115 42.667 42.667 42.667c23.552 0 42.667-19.115 42.667-42.667s-19.115-42.667-42.667-42.667zM512 874.667c-23.552 0-42.667 19.115-42.667 42.667s19.115 42.667 42.667 42.667c23.552 0 42.667-19.115 42.667-42.667s-19.115-42.667-42.667-42.667zM256 789.333c-23.552 0-42.667 19.115-42.667 42.667s19.115 42.667 42.667 42.667c23.552 0 42.667-19.115 42.667-42.667s-19.115-42.667-42.667-42.667zM512 832c212.096 0 384-171.904 384-384 0-164.139-103.168-303.829-248.064-358.784l34.773-131.371-83.797-21.504-34.859 131.584c-17.067-2.304-34.347-3.925-52.053-3.925-17.365 0-34.304 1.536-51.072 3.797l-35.541-142.123-82.773 20.693 35.541 142.080c-146.005 54.4-250.155 194.645-250.155 359.552 0 212.096 171.904 384 384 384zM512 149.333c10.197 0 19.797 2.005 29.739 2.987l-30.677 115.968-29.013-115.925c10.027-1.024 19.712-3.029 29.952-3.029zM398.976 171.819l71.637 286.549 62.848-15.744 19.627 5.035 72.917-275.541c108.331 44.8 184.661 151.339 184.661 275.883 0 164.949-133.717 298.667-298.667 298.667s-298.667-133.717-298.667-298.667c0-124.885 76.8-231.595 185.643-276.181zM85.333 576c-23.552 0-42.667 19.115-42.667 42.667s19.115 42.667 42.667 42.667c23.552 0 42.667-19.115 42.667-42.667s-19.115-42.667-42.667-42.667zM85.333 320c23.552 0 42.667-19.115 42.667-42.667s-19.115-42.667-42.667-42.667c-23.552 0-42.667 19.115-42.667 42.667s19.115 42.667 42.667 42.667zM256 106.667c23.552 0 42.667-19.115 42.667-42.667s-19.115-42.667-42.667-42.667c-23.552 0-42.667 19.115-42.667 42.667s19.115 42.667 42.667 42.667zM768 106.667c23.552 0 42.667-19.115 42.667-42.667s-19.115-42.667-42.667-42.667c-23.552 0-42.667 19.115-42.667 42.667s19.115 42.667 42.667 42.667zM938.667 320c23.552 0 42.667-19.115 42.667-42.667s-19.115-42.667-42.667-42.667c-23.552 0-42.667 19.115-42.667 42.667s19.115 42.667 42.667 42.667z" />
<glyph unicode="&#xe972;" glyph-name="event" data-tags="event" d="M0-64v896.981l213.333-0.981v128h170.667v-128h256v128h170.667v-128l213.333 0.981v-896.981h-1024zM341.333 789.333v85.333h-85.333v-128h85.333v42.667zM768 789.333v85.333h-85.333v-128h85.333v42.667zM938.667 746.667h-128v-42.667h-170.667v42.667h-256v-42.667h-170.667v42.667h-128v-128h853.333v128zM938.667 533.333h-853.333v-512h853.333v512zM213.077 233.984h-84.992v86.101h84.992v-86.101zM213.077 63.872h-84.992v86.101h84.992v-86.101zM383.787 233.984h-84.992v86.101h84.992v-86.101zM383.787 63.872h-84.992v86.101h84.992v-86.101zM554.496 233.984h-84.992v86.101h84.992v-86.101zM725.333 405.333h-85.333v85.333h85.333v-85.333zM725.333 234.667h-85.333v85.333h85.333v-85.333zM896 405.333h-85.333v85.333h85.333v-85.333zM896 234.667h-85.333v85.333h85.333v-85.333z" />
<glyph unicode="&#xe973;" glyph-name="facebook" data-tags="facebook" d="M501.719 939.438c-276.562 0-501.596-220.447-501.596-491.397s225.034-491.397 501.596-491.397c276.603 0 501.637 220.447 501.637 491.397s-225.034 491.397-501.637 491.397zM626.483 430.715h-81.592c0-127.713 0-284.959 0-284.959h-120.955c0 0 0 155.73 0 284.959h-57.467v100.721h57.467v65.126c0 46.653 22.651 119.562 122.061 119.562l89.58-0.328v-97.772c0 0-54.477 0-65.044 0-10.609 0-25.641-5.161-25.641-27.443v-59.187h92.16l-10.568-100.68z" />
<glyph unicode="&#xe974;" glyph-name="facebook_signin" data-tags="facebook_signin" d="M588.237 624.486v88.269c0 13.21 0.563 23.501 1.792 30.72 1.178 7.27 3.891 14.438 8.090 21.453 4.198 7.066 11.008 11.93 20.378 14.592 9.421 2.714 21.914 4.045 37.53 4.045h85.197v176.486h-136.192c-78.848 0-135.424-19.354-169.83-58.061-34.406-38.758-51.61-95.846-51.61-171.213v-106.291h-102.042v-176.486h102.042v-512.051h204.646v512.051h136.192l18.022 176.486h-154.214z" />
<glyph unicode="&#xe975;" glyph-name="fbround" data-tags="fbround" d="M511.972 959.886c-282.226 0-511.858-229.632-511.858-511.858 0-282.254 229.632-511.858 511.858-511.858 282.254 0 511.858 229.604 511.858 511.858 0 282.226-229.604 511.858-511.858 511.858zM639.26 429.995h-83.257c0-133.035 0-296.846 0-296.846h-123.42c0 0 0 162.219 0 296.846h-58.652v104.903h58.652v67.868c0 48.583 23.097 124.53 124.558 124.53l91.392-0.341v-101.831c0 0-55.58 0-66.361 0-10.809 0-26.169-5.404-26.169-28.587v-61.639h94.037l-10.78-104.903z" />
<glyph unicode="&#xe976;" glyph-name="googleplus" data-tags="googleplus" d="M948.983 428.279v-72.401h-64.284v72.401h-75.017v62.047h75.017v72.401h64.284v-72.401h75.017v-62.047h-75.017zM392.913 68.741c-216.974 0-392.913 169.832-392.913 379.259 0 209.465 175.938 379.259 392.913 379.259 107.065 0 204.117-41.339 274.963-108.392l-88.709-93.070c-47.483 46.308-113.399 75.017-186.254 75.017-144.649 0-261.916-113.171-261.916-252.814s117.267-252.814 261.916-252.814c117.305 0 216.595 74.373 249.97 176.962h-223.763v117.988h366.744v-117.988c-36.409-173.094-202.828-303.407-392.951-303.407z" />
<glyph unicode="&#xe977;" glyph-name="googleplus_round" data-tags="googleplus_round" d="M511.972-63.545c-282.226 0-511.858 229.604-511.858 511.858 0 282.226 229.632 511.858 511.858 511.858 282.254 0 511.858-229.632 511.858-511.858 0-282.254-229.604-511.858-511.858-511.858zM552.505 705.963h-152.206c-16.64 0-33.564-2.901-50.148-8.647-55.467-19.086-94.236-66.389-94.236-114.887 0-68.722 53.248-120.832 124.416-122.453-1.394-5.461-2.105-10.837-2.105-16.071 0-10.581 2.674-20.651 8.164-30.35-0.626 0-1.252 0-1.934 0-67.868 0-129.109-33.28-152.348-82.802-6.059-12.914-9.131-25.941-9.131-38.798 0-12.516 3.186-24.519 9.5-35.812 14.649-26.169 45.966-46.45 88.405-57.145 21.902-5.547 45.397-8.363 69.86-8.363 21.959 0 42.894 2.844 62.236 8.42 60.331 17.522 99.3 61.895 99.328 113.209 0 49.152-15.815 78.62-58.254 108.629-18.233 12.914-34.731 31.801-35.015 37.604 0 10.524 0.91 15.616 24.633 34.105 30.692 24.007 47.559 55.552 47.559 88.889 0 30.18-9.244 57.088-24.974 75.975h12.231c2.532 0 4.978 0.768 6.997 2.219l34.048 24.633c4.21 3.072 5.973 8.448 4.352 13.369s-6.201 8.277-11.378 8.277zM796.7 484.75c0 6.599-5.404 11.975-11.975 11.975h-86.5v86.443c0 6.628-5.376 11.947-11.918 11.947h-24.633c-6.656 0-12.004-5.319-12.004-11.947v-86.443h-86.471c-6.599 0-11.975-5.404-11.975-12.004v-24.604c0-6.628 5.376-11.947 11.975-11.947h86.471v-86.528c0-6.628 5.348-11.975 12.004-11.975h24.633c6.542 0 11.918 5.348 11.918 11.975v86.528h86.5c6.571 0 11.975 5.348 11.975 11.947v24.633zM406.727 499.314c0 0 0 0-0.057 0h-0.455c-32.939 1.024-65.849 39.936-71.737 84.964-3.271 25.173 2.020 47.815 14.535 62.094 8.050 9.244 18.688 14.165 30.578 14.165l1.337-0.057c33.621-0.967 65.849-38.485 71.737-83.57 3.328-25.202-2.304-48.953-14.99-63.431-8.107-9.273-18.574-14.165-30.948-14.165zM400.441 375.467c11.292-0.142 22.3-1.792 32.683-4.978 3.556-2.446 6.969-4.807 10.268-6.997 23.979-16.384 39.851-27.193 44.288-44.487 1.052-4.38 1.536-8.761 1.536-12.971 0-44.544-33.223-67.129-98.759-67.129-49.692 0-88.633 30.464-88.633 69.404 0 35.812 45.426 67.157 97.28 67.157h1.337z" />
<glyph unicode="&#xe978;" glyph-name="instagram" data-tags="instagram" d="M512.256-63.545c-282.226 0-511.858 229.604-511.858 511.858 0 282.226 229.632 511.858 511.858 511.858 282.254 0 511.858-229.632 511.858-511.858 0-282.254-229.604-511.858-511.858-511.858zM803.356 508.046v118.841c0 62.066-50.46 112.498-112.526 112.498h-357.148c-62.066 0-112.526-50.432-112.526-112.498v-357.205c0-62.066 50.46-112.526 112.526-112.526h357.177c62.037 0 112.498 50.46 112.498 112.526v238.364zM690.802 213.959h-357.148c-30.777 0-55.808 24.946-55.808 55.723v238.364h86.926c-7.509-18.432-11.719-38.628-11.719-59.733 0-87.78 71.396-159.232 159.204-159.232s159.232 71.452 159.232 159.232c0 21.106-4.295 41.301-11.804 59.733h86.926v-238.364c0-30.777-25.003-55.723-55.808-55.723zM637.298 672.028l98.702 0.313v-98.674l-98.361-0.341-0.341 98.702zM512.256 345.828c-56.519 0-102.514 45.995-102.485 102.514 0.028 22.3 7.253 42.894 19.371 59.705 18.66 25.828 48.924 42.724 83.115 42.724s64.455-16.924 83.086-42.724c12.117-16.839 19.399-37.433 19.399-59.733 0-56.519-46.023-102.485-102.485-102.485z" />
<glyph unicode="&#xe979;" glyph-name="linkedin" data-tags="linkedin" horiz-adv-x="1025" d="M512.399-64.114c-282.461 0-512.285 229.795-512.285 512.285 0 282.461 229.824 512.285 512.285 512.285 282.49 0 512.285-229.824 512.285-512.285 0-282.49-229.795-512.285-512.285-512.285zM784.070 687.844c0 21.75-18.106 39.4-40.425 39.4h-465.967c-22.291 0-40.396-17.622-40.396-39.4v-471.404c0-21.75 18.106-39.4 40.396-39.4h465.967c22.348 0 40.425 17.65 40.425 39.4v471.404zM618.243 266.658v132.946c0 33.393-11.957 56.196-41.82 56.196-22.831 0-36.411-15.373-42.389-30.233-2.192-5.267-2.704-12.697-2.704-20.127v-138.811h-82.586c0 0 1.082 225.212 0 248.47h82.586v-35.158c10.96 16.91 30.575 41.023 74.416 41.023 54.346 0 95.084-35.5 95.084-111.794v-142.512h-82.586zM531.301 479.913c-0.142-0.285-0.342-0.541-0.541-0.826h0.541v0.826zM361.717 549.062h-0.512c-27.7 0-45.634 19.074-45.634 42.902 0 24.397 18.476 42.93 46.716 42.93 28.269 0 45.606-18.533 46.175-42.93 0-23.828-17.935-42.902-46.745-42.902zM403.024 266.629h-82.586v248.47h82.586v-248.47z" />
<glyph unicode="&#xe97a;" glyph-name="location" data-tags="location" d="M512-64c-282.752 0-512 229.248-512 512s229.248 512 512 512c282.752 0 512-229.248 512-512s-229.248-512-512-512zM513.067 725.589c-0.341 0-0.725 0-1.067 0s-0.725 0-1.067 0c-86.272-1.365-156.459-72.661-156.459-158.976 0-98.347 97.92-197.803 147.499-241.835 0.043-0.043 0.128-0.085 0.171-0.171 3.541-3.157 6.869-6.016 9.856-8.576 44.8 38.272 157.525 145.109 157.525 250.581 0 86.315-70.187 157.611-156.459 158.976zM592.725 318.464c-11.819-11.947-23.040-22.443-32.853-31.232 68.48-6.955 108.971-28.416 108.971-41.131 0-15.317-58.709-43.435-154.624-43.435s-154.624 28.117-154.624 43.435c0 12.459 38.869 33.365 104.96 40.747-9.728 8.704-20.864 19.115-32.597 30.891-60.672-11.179-107.776-35.328-107.776-71.637 0-51.755 95.616-78.848 190.037-78.848s190.037 27.093 190.037 78.848c0 37.077-49.024 61.44-111.531 72.363zM431.061 582.571c0 45.525 36.907 82.432 82.432 82.432s82.432-36.907 82.432-82.432c0-45.525-36.907-82.432-82.432-82.432s-82.432 36.907-82.432 82.432z" />
<glyph unicode="&#xe97b;" glyph-name="movie" data-tags="movie" d="M1003.638-24.615h-983.276c-11.225 0-20.362 9.177-20.362 20.559v904.113c0 11.382 9.137 20.559 20.362 20.559h983.276c11.225 0 20.362-9.177 20.362-20.559v-904.113c0-11.382-9.137-20.559-20.362-20.559zM157.538 841.846h-78.769v-118.154h78.769v118.154zM157.538 644.923h-78.769v-157.538h78.769v157.538zM157.538 408.615h-78.769v-157.538h78.769v157.538zM157.538 172.308h-78.769v-118.154h78.769v118.154zM787.692 881.231h-551.385v-866.462h551.385v866.462zM945.231 841.846h-78.769v-118.154h78.769v118.154zM945.231 644.923h-78.769v-157.538h78.769v157.538zM945.231 408.615h-78.769v-157.538h78.769v157.538zM945.231 172.308h-78.769v-118.154h78.769v118.154zM456.743 564.342l127.37-103.424c4.372-2.718 7.050-7.444 7.050-12.485s-2.678-9.728-7.050-12.485l-127.37-103.424c-2.481-1.497-5.278-2.284-8.113-2.284-2.521 0-5.041 0.591-7.326 1.812-4.844 2.599-7.838 7.562-7.838 12.958v206.848c0 5.396 2.993 10.398 7.838 12.997 4.884 2.56 10.791 2.363 15.439-0.512z" />
<glyph unicode="&#xe97c;" glyph-name="offer" data-tags="offer" horiz-adv-x="1030" d="M1022.857 445.354c8.891 8.933 8.933-8.933 0 0zM895.847 106.66c0-12.87-29.466-42.337-42.337-42.337h-169.347l-153.175-120.279c-8.933-8.933-23.37-8.933-32.345 0l-153.175 120.279h-169.347c-12.87 0-42.337 29.466-42.337 42.337v169.347l-127.010 169.347 127.010 169.347v169.347c0 12.87 29.466 42.337 42.337 42.337h169.347l169.347 127.010 169.347-127.010h169.347c12.87 0 42.337-29.466 42.337-42.337v-169.347l127.010-169.347-127.010-169.347v-169.347zM938.183 445.354l-127.010 127.010v169.347h-169.347l-127.010 127.010-127.010-127.010h-169.347v-169.347l-126.714-127.010 126.714-127.010v-169.347h169.347l127.391-126.418 126.629 126.418h169.347v169.347l127.010 127.010zM335.773 239.639c-7.578-7.578-19.814-7.578-27.392 0s-7.578 19.856 0 27.434l383.783 384.037c7.578 7.578 19.814 7.578 27.392 0s7.578-19.856 0-27.434l-383.783-384.037zM410.074 464.787c-48.603 0-87.976 39.077-87.976 87.256 0 48.222 39.373 87.298 87.976 87.298s87.976-39.077 87.976-87.298c0-48.179-39.373-87.256-87.976-87.256zM410.074 600.561c-26.969 0-48.857-21.719-48.857-48.518 0-26.757 21.846-48.476 48.857-48.476 26.969 0 48.899 21.719 48.899 48.476 0 26.799-21.888 48.518-48.899 48.518zM625.145 425.964c48.56 0 87.976-39.077 87.976-87.298 0-48.179-39.416-87.256-87.976-87.256-48.603 0-87.976 39.077-87.976 87.256 0 48.222 39.373 87.298 87.976 87.298zM625.145 290.19c26.969 0 48.857 21.719 48.857 48.476 0 26.799-21.888 48.518-48.857 48.518-27.011 0-48.899-21.719-48.899-48.518 0-26.757 21.888-48.476 48.899-48.476zM6.774 445.354c-8.933-8.933-8.933 8.933 0 0zM514.815 953.395c-8.933 8.933 8.933 8.933 0 0z" />
<glyph unicode="&#xe97d;" glyph-name="receiver" data-tags="receiver" horiz-adv-x="1026" d="M1001.267 475.034c-1.741-0.256-3.277-0.461-5.018-0.461-14.080 0-26.419 9.933-28.826 24.218-17.101 100.71-64.768 192.563-138.035 265.574-73.267 72.858-165.376 120.627-266.342 137.677-16.026 2.816-26.675 17.766-24.064 33.741 2.816 15.77 17.766 26.573 33.587 23.757 113.152-19.2 216.064-72.397 297.984-154.061 81.92-81.715 135.27-184.371 154.522-297.216 2.816-15.718-7.987-30.874-23.808-33.229zM564.531 773.888c68.71-11.674 131.379-44.083 180.992-93.594 49.613-49.459 82.125-111.923 93.85-180.429 2.56-15.974-8.038-31.13-24.064-33.741-1.741-0.205-3.277-0.41-5.018-0.41-14.080 0-26.419 9.933-28.826 24.218-9.728 56.627-36.403 108.032-77.568 149.094s-92.774 67.891-149.555 77.363c-16.026 2.611-26.419 17.971-23.603 33.741s17.766 26.368 33.792 23.757zM370.381 581.376c-16.077-16.23-32.512-33.126-50.278-49.306 13.21-29.184 31.386-57.907 58.522-92.058 55.91-68.557 114.176-121.498 178.33-162.099 6.298-3.891 13.67-7.578 21.453-11.469 5.427-2.816 11.059-5.632 16.691-8.653l68.506 68.096c21.862 21.811 47.462 33.28 74.086 33.28 26.88 0 52.275-11.674 73.267-33.485l118.989-119.091c21.914-21.606 33.382-47.36 33.382-74.138 0-26.573-11.264-52.531-32.717-74.752-9.318-9.728-18.893-19.046-28.211-27.904-13.619-13.21-26.624-25.498-37.888-39.117-0.256-0.461-0.666-0.666-0.87-1.075-32.973-35.686-75.008-53.606-125.082-53.606-4.301 0-9.062 0.205-13.619 0.461-74.342 4.71-140.902 32.614-190.72 56.166-130.509 62.874-244.685 152.166-339.61 265.165-78.234 93.798-130.714 181.35-165.786 275.763-14.336 38.502-32.973 97.28-27.75 160.41 3.482 39.066 19.302 72.806 47.002 100.454l73.728 74.138c0.205 0.205 0.205 0.205 0.41 0.461 21.658 20.736 47.258 31.744 73.677 31.744 26.47 0 51.61-11.008 72.602-31.744 14.080-13.005 27.75-26.829 40.755-40.192 6.502-6.963 13.414-13.875 20.173-20.582l59.136-58.982c45.517-45.363 45.517-104.141 0-149.555-6.042-6.042-12.134-12.339-18.176-18.33zM347.392 707.994l-59.187 58.982c-6.912 7.117-13.824 14.029-20.582 20.992-13.21 13.568-25.754 26.368-39.014 38.656-0.205 0.205-0.41 0.41-0.614 0.666-6.963 6.912-18.022 15.104-31.642 15.104-11.059 0-22.323-5.376-32.973-15.36l-73.882-73.677c-17.971-17.92-27.75-38.861-29.901-64.154-3.277-39.578 4.096-81.51 24.269-135.322 32.717-88.166 82.125-170.291 156.058-259.123 89.498-106.547 197.171-190.618 319.846-249.856 44.851-21.35 104.704-46.438 169.062-50.534 3.226-0.256 6.707-0.256 9.984-0.256 33.792 0 59.597 11.059 81.459 34.406 13.466 15.77 27.75 29.798 41.83 43.213 9.318 9.062 17.971 17.254 26.47 26.368 22.067 22.886 22.067 45.619-0.256 67.635l-119.398 119.091c-0.205 0.205-0.205 0.205-0.461 0.41-6.707 7.373-17.766 15.77-31.181 15.77-13.67 0-25.344-8.858-32.717-16.179l-74.138-73.933c-3.686-3.635-14.95-14.899-32.922-14.899-7.168 0-14.080 1.741-21.453 5.427-0.87 0.41-1.741 1.075-2.611 1.485-6.298 3.891-13.67 7.578-21.453 11.469-8.653 4.301-17.766 8.858-26.675 14.49-69.53 43.827-132.608 101.12-192.461 174.592l-0.205 0.256c-32.922 41.677-54.579 76.698-69.99 113.869-0.205 0.666-0.41 1.331-0.666 1.946-3.891 12.339-7.373 30.464 11.264 49.050 0.256 0.461 0.666 0.666 1.126 1.075 18.842 16.896 36.147 34.15 54.374 52.736 6.298 6.042 12.339 12.339 18.637 18.586 22.989 22.938 22.989 44.134 0 67.021z" />
<glyph unicode="&#xe97e;" glyph-name="star" data-tags="star" d="M512 928l168.768-301.696 343.232-64.96-238.912-251.456 43.328-341.888-316.416 146.304-316.416-146.304 43.328 341.888-238.912 251.456 343.232 64.96 168.768 301.696z" />
<glyph unicode="&#xe97f;" glyph-name="tour" data-tags="tour" d="M960.805 467.090c-18.066-0.146-38.912 41.509-63.232 38.144-19.2-2.633-40.887-37.449-63.195-38.144-20.846-0.658-40.009 39.607-63.232 38.144-18.981-1.17-43.081-37.632-63.195-38.144-20.882-0.549-41.399 39.058-63.195 38.144-19.2-0.768-43.666-37.742-63.232-38.144-10.057-0.219-21.687 14.738-32.951 26.185v-357.888c191.671-9.472 311.077-91.392 311.077-126.245h-695.296c0 43.264 119.442 117.76 311.077 126.318v351.89c-10.24-9.838-20.297-20.078-32.951-20.261-22.053-0.366-41.691 38.656-63.232 38.144-21.211-0.475-42.789-37.961-63.195-38.144-21.723-0.219-42.789 38.437-63.195 38.144-20.37-0.256-44.617-38.144-63.232-38.144-26.185 0-54.126 38.144-75.849 38.144-16.165 0-37.413-38.144-50.578-38.144-43.154 0-63.195 38.144-63.195 38.144v16.018l475.429 303.47v25.563c0 10.459 25.637 36.571 36.096 36.571h0.951c10.459 0 36.096-26.112 36.096-36.571v-26.112l475.429-318.939c0 0-23.735-37.851-63.195-38.144zM804.571 594.286l-292.571 182.857-292.571-182.857v-36.571c0 0 11.886 0 36.571 0 7.497 0 27.319 36.571 36.571 36.571 12.398 0 21.614-36.571 36.571-36.571 10.642 0 24.942 36.389 36.571 36.571 11.666 0.183 24.174-36.681 36.571-36.571 11.666 0.11 24.43 36.279 36.571 36.571 12.288 0.293 23.991-36.791 36.571-36.571 13.787 0.219 22.638 36.096 36.571 36.571 9.362 0.293 27.246-36.754 36.571-36.571 11.191 0.256 25.6 36.096 36.571 36.571 12.471 0.512 24.649-36.901 36.571-36.571 11.483 0.329 25.71 35.877 36.571 36.571 13.275 0.878 24.649-36.974 36.571-36.571 12.763 0.402 25.6 34.999 36.571 36.571 13.897 1.975 26.258-36.645 36.571-36.571 13.312 0.11 34.816-3.877 36.571 0 2.085 4.608 0 36.571 0 36.571zM512 594.286c-4.315-0.146 4.315 0.146 0 0z" />
<glyph unicode="&#xe980;" glyph-name="twitter" data-tags="twitter" d="M501.719 939.438c-276.562 0-501.596-220.447-501.596-491.397s225.034-491.397 501.596-491.397c276.603 0 501.637 220.447 501.637 491.397s-225.034 491.397-501.637 491.397zM725.524 560.476c0.205-4.833 0.328-9.748 0.328-14.664 0-149.463-116.122-321.782-328.499-321.782-65.208 0-125.911 18.719-176.988 50.79 9.011-1.024 18.227-1.556 27.525-1.556 54.108 0 103.875 18.063 143.401 48.415-50.504 0.901-93.184 33.587-107.848 78.561 7.004-1.352 14.295-2.048 21.709-2.048 10.527 0 20.726 1.393 30.433 3.932-52.838 10.404-92.611 56.115-92.611 110.879 0 0.492 0 0.983 0 1.475 15.565-8.479 33.382-13.599 52.265-14.172-30.925 20.275-51.323 54.927-51.323 94.126 0 20.767 5.652 40.182 15.606 56.893 56.934-68.444 142.049-113.459 237.978-118.211-1.966 8.274-2.99 16.916-2.99 25.805 0 62.423 51.692 113.091 115.466 113.091 33.178 0 63.201-13.763 84.255-35.717 26.337 5.079 51.036 14.459 73.359 27.443-8.643-26.419-26.952-48.538-50.79-62.587 23.347 2.744 45.629 8.806 66.314 17.818-15.442-22.651-35.062-42.598-57.59-58.491z" />
<glyph unicode="&#xe981;" glyph-name="vimeo" data-tags="vimeo" d="M501.76 939.52c-277.135 0-501.76-220.037-501.76-491.52 0-271.442 224.625-491.52 501.76-491.52 277.094 0 501.76 220.078 501.76 491.52 0 271.483-224.666 491.52-501.76 491.52zM796.59 518.943c-33.26-183.665-219.218-339.19-275.128-374.702-55.951-35.553-106.988 14.213-125.501 51.814-21.176 42.926-84.664 275.456-101.294 294.748-16.63 19.251-66.519-19.292-66.519-19.292l-24.207 31.089c0 0 101.335 118.497 178.422 133.325 81.715 15.688 81.592-122.962 101.253-199.926 19.005-74.465 31.785-117.064 48.415-117.064s48.374 41.533 83.149 105.185c34.816 63.734-1.516 120.013-69.55 79.954 27.197 159.99 284.262 198.451 250.962 14.868z" />
<glyph unicode="&#xe982;" glyph-name="youtube" data-tags="youtube" d="M512-63.972c-282.738 0-511.972 229.205-511.972 511.972 0 282.738 229.234 511.972 511.972 511.972 282.766 0 511.972-229.234 511.972-511.972 0-282.766-229.205-511.972-511.972-511.972zM860.985 618.894c-8.846 38.428-40.277 66.788-78.165 71.026-89.628 10.012-180.366 10.069-270.677 10.012-90.34 0.057-181.077 0-270.763-10.012-37.831-4.238-69.262-32.597-78.108-71.026-12.601-54.756-12.743-114.517-12.743-170.894s0-116.139 12.601-170.923c8.846-38.428 40.277-66.788 78.108-71.026 89.657-10.012 180.395-10.069 270.763-10.012 90.34-0.057 181.049 0 270.677 10.012 37.86 4.238 69.291 32.597 78.165 71.026 12.601 54.784 12.658 114.546 12.658 170.923 0 56.348 0.085 116.139-12.516 170.894zM418.731 574.862c76.601-39.993 152.747-79.701 229.831-119.922-76.857-39.851-153.031-79.332-229.831-119.154 0 79.957 0 159.090 0 239.076z" />
</font>
</defs>
</svg>
